s On Sex Carnage 22 Movies WEBRip x264 with Sample ☻


    Seeders : 1      Leechers : 19

Hash :364D076DA935342DFE941B4550AB59021C51023F
Added :7 months ago in Other - Other
Size :780.14 MB
Stream :Watch FREE Full Movies @


s On Sex Carnage 22 Movies WEBRip x264 with Sample ☻
Download your torrents safely! And Anonymously!








Please Turn on your VPN before Downloading Torrents.
Your IP Address is 95.181.177.230.   And Location Poland, Warszawa
Your Internet Service Provider and Government can track your Online Activity!  Protect yourself from expensive lawsuits and fines NOW!
We Strongly Recommend Using Very Cheap VPN for P2P to Anonymize your Torrenting.

Note :

Please Update (Trackers Info) Before Start Torrents Downloading to See Updated Seeders And Leechers for Batter Download Speed.

Trackers List

Tracker NameLast CheckStatusSeedersLeechers
udp://tracker.vanitycore.co:6969/announce7 months agosuccess13
udp://9.rarbg.to:2770/announce7 months agosuccess06
udp://tracker.torrent.eu.org:451/announce7 months agosuccess00
udp://tracker.mg64.net:6969/announce7 months agofailed00
udp://tracker.torrent.eu.org:4517 months agosuccess00
https://tracker3.itzmx.com:8080/announce7 months agosuccess00
udp://9.rarbg.me:2740/announce7 months agosuccess06
udp://9.rarbg.me:2730/announce7 months agosuccess06
udp://9.rarbg.me:2770/announce7 months agosuccess06
udp://tracker.zer0day.to:1337/announce7 months agofailed00
udp://zer0day.ch:13377 months agofailed00
udp://9.rarbg.to:2740/announce7 months agosuccess06
udp://9.rarbg.to:2730/announce7 months agosuccess06
udp://open.stealth.si:80/announce7 months agosuccess00
udp://tracker.pirateparty.gr:6969/announce7 months agosuccess019
udp://9.rarbg.to:2720/announce7 months agosuccess06
udp://public.popcorn-tracker.org:6969/announce7 months agofailed00
udp://tracker.cypherpunks.ru:6969/announce7 months agofailed00
udp://inferno.demonoid.pw:3418/announce7 months agofailed00
udp://tracker.cyberia.is:6969/announce7 months agosuccess00
udp://asnet.pw:2710/announce7 months agofailed00
udp://tracker.acg.gg:2710/announce7 months agofailed00
udp://tracker.port443.xyz:6969/announce7 months agosuccess00
https://bt.acg.gg:1578/announce7 months agofailed00
udp://tracker.justseed.it:1337/announce7 months agosuccess00
udp://9.rarbg.me:2710/announce7 months agosuccess06
udp://exodus.desync.com:6969/announce7 months agosuccess00
udp://tracker.leechers-paradise.org:6969/announce7 months agofailed00
udp://open.demonii.com:13377 months agofailed00
udp://exodus.desync.com:69697 months agosuccess00
udp://tracker.coppersurfer.tk:6969/announce7 months agosuccess019
udp://shadowshq.yi.org:6969/announce7 months agofailed00
udp://eddie4.nl:6969/announce7 months agofailed00
udp://thetracker.org:80/announce7 months agosuccess00
https://share.camoe.cn:8080/announce7 months agosuccess00
udp://tracker.coppersurfer.tk:69697 months agosuccess019
udp://ipv4.tracker.harry.lu:80/announce7 months agosuccess06
udp://tracker.coppersurfer.tk:80/announce7 months agosuccess019
udp://ipv6.tracker.harry.lu:80/announce7 months agofailed00
udp://tracker.trackerfix.com:80/announce7 months agofailed00
udp://bt. -tracker.com:2710/announce7 months agosuccess00
udp://glotorrents.pw:6969/announce7 months agofailed00
udp://tracker.leechers-paradise.org:69697 months agofailed00
udp://p4p.arenabg.ch:1337/announce7 months agofailed00
udp://9.rarbg.to:2710/announce7 months agosuccess06
udp://tracker.opentrackr.org:1337/announce7 months agosuccess06
udp://tracker.tiny-vps.com:6969/announce7 months agosuccess00
udp://tracker.internetwarriors.net:1337/announce7 months agosuccess00



Torrent File Content (2 files)


Too many Files to show...


Description



18+ s On Sex Carnage 22 Movies WEBRip x264 with Sample ☻rDX☻
===============================================================================================

SCREEN SHOTS:





or

https://iphonehosting.eu/2018/11/b/business/1.html


File size : 773 MiB
Duration : 1 h 46 min
Overall bit rate mode : Constant
Overall bit rate : 1 015 kb/s
Movie name : 18+ s On Sex Carnage 22 Movies WEBRip x264 ☻rDX☻

Video
ID : 2
Format : AVC
Format/Info : Advanced Video Codec
Format profile : [email protected]
Format settings, CABAC : Yes
Format settings, ReFrames : 2 frames
Format settings, GOP : M=1, N=12
Codec ID : V_MPEG4/ISO/AVC
Duration : 1 h 46 min
Bit rate mode : Constant
Bit rate : 952 kb/s
Width : 700 pixels
Height : 394 pixels
Display aspect ratio : 16:9
Frame rate mode : Constant
Frame rate : 30.000 FPS
Color space : YUV
Chroma subsampling : 4:2:0
Bit depth : 8 bits
Scan type : Progressive
Bits/(Pixel*Frame) : 0.115
Stream size : 709 MiB (92%)
Title : ☻rDX☻
Default : Yes
Forced : No

Audio
ID : 1
Format : AC-3
Format/Info : Audio Coding 3
Mode extension : CM (complete main)
Format settings, Endianness : Big
Codec ID : A_AC3
Duration : 1 h 46 min
Bit rate mode : Constant
Bit rate : 64.0 kb/s
Channel(s) : 2 channels
Channel positions : Front: L R
Sampling rate : 44.1 kHz
Frame rate : 28.711 FPS (1536 spf)
Bit depth : 16 bits
Compression mode : Lossy
Stream size : 48.7 MiB (6%)
Title : ☻rDX☻
Default : Yes
Forced : No



Related torrents

Torrent NameAddedSizeSeedLeechHealth
7 months ago - in Other3.27 GB29
7 months ago - in Other884.26 MB45
7 months ago - in Other3.39 GB24
8 months ago - in Other2.78 GB78
8 months ago - in Other2.54 GB10

Note :

Feel free to post any comments about this torrent, including links to Subtitle, samples, screenshots, or any other relevant information. Watch s On Sex Carnage 22 Movies WEBRip x264 with Sample ☻ Free Movies Online, Like 123Movies, Fmovies, Putlockers, Popcorntime, Netflix or Direct Download s On Sex Carnage 22 Movies WEBRip x264 with Sample ☻ via Magnet Link.

Comments (0 Comments)




Please login or create a FREE account to post comments
Quick Browse
Movies
TV shows
Music
Games
Applications
Anime
Other

Latest Articles

Friends
Torrentz2

LimeTorrents

Latest Searches