Doctor Who 2005 S08E07 Kill the Moon HDTV HEVC AC3 5 1 - DLSTv


    Seeders : 0      Leechers : 0

Hash :A630160A1380A318A71A693F275EAC1A71760FF5
Added :1 Year+ in TV shows
Size :188.94 MB
Stream :Watch Full Movie Online @
Share :









Note :

Please Update (Trackers Info) Before Start Torrents Downloading to See Updated Seeders And Leechers for Batter Download Speed.

Trackers List

Tracker NameLast CheckStatusSeedersLeechers
https://tracker.publicbt.com/announce6 months agosuccess00
udp://tracker.ccc.de:80/announce6 months agosuccess00
udp://tracker.publicbt.com:80/announce6 months agosuccess00
udp://tracker.openbittorrent.com:80/announce6 months agosuccess00
udp://tracker.istole.it:80/announce6 months agosuccess00
udp://9.rarbg.me:2710/announce6 months agosuccess00
udp://9.rarbg.com:2710/announce6 months agosuccess00
https://tracker.istole.it/announce6 months agosuccess00




Torrent File Content (1 file)


     Doctor Who 2005 S08E07 Kill the Moon HDTV HEVC AC3 5.1 - DLSTv.mkv -
188.94 MB



Description



 							General
Format : Matroska
Format version : Version 1
File size : 189 MiB
Duration : 44mn 31s
Overall bit rate : 593 Kbps
Writing application : DivXMKVMux 9.8.12.1750
Writing library : libDivXMediaFormat 4.0.0.0578

Video
ID : 1
Format : HEVC
Format/Info : High Efficiency Video Coding
Codec ID : V_MPEGH/ISO/HEVC
Duration : 44mn 31s
Bit rate : 197 Kbps
Width : 640 pixels
Height : 360 pixels
Display aspect ratio : 16:9
Frame rate mode : Constant
Frame rate : 25.000 fps
Bits/(Pixel*Frame) : 0.034
Stream size : 62.9 MiB (33%)
Language : English
Default : Yes
Forced : No

Audio
ID : 2
Format : AC-3
Format/Info : Audio Coding 3
Mode extension : CM (complete main)
Format settings, Endianness : Big
Codec ID : A_AC3
Duration : 44mn 31s
Bit rate mode : Constant
Bit rate : 384 Kbps
Channel(s) : 6 channels
Channel positions : Front: L C R, Side: L R, LFE
Sampling rate : 48.0 KHz
Bit depth : 16 bits
Compression mode : Lossy
Stream size : 122 MiB (65%)
Language : English
Default : Yes
Forced : No

Related torrents

Torrent NameAddedSizeSeedLeechHealth
1 Year+ - in TV shows145.16 MB00
1 Year+ - in TV shows145.16 MB00
1 Year+ - in TV shows222.78 MB00
1 Year+ - in TV shows1.13 GB10
1 Year+ - in TV shows323.01 MB00

Note :

Feel free to post any comments about this torrent, including links to Subtitle, samples, screenshots, or any other relevant information. Please Dont Download anything from Comments, And Links to Streaming Sites like Watch Online Doctor Who 2005 S08E07 Kill the Moon HDTV HEVC AC3 5 1 - DLSTv Full Movie, Fmovies, 123Movies, Putlocker, Netflix, etc.

Comments (0 Comments)




Please login or create a FREE account to post comments
Quick Browse
Movies
TV shows
Music
Games
Applications
Anime
Other

Latest Articles

Friends

LimeTorrents

Latest Searches