Doctor Who 2005 S08E07 Kill the Moon HDTV HEVC AC3 5 1 - DLSTv


    Seeders : 0      Leechers : 0

Hash :A630160A1380A318A71A693F275EAC1A71760FF5
Added :1 Year+ in TV shows
Size :188.94 MB
Stream :Watch FREE Full Movies @


Doctor Who 2005 S08E07 Kill the Moon HDTV HEVC AC3 5 1 - DLSTv
Download your torrents safely! And Anonymously!








Please Turn on your VPN before Downloading Torrents.
Your IP Address is 94.158.22.76.   And Location ,
Your Internet Service Provider and Government can track your Online Activity!  Protect yourself from expensive lawsuits and fines NOW!
We Strongly Recommend Using Very Cheap VPN for P2P to Anonymize your Torrenting.

Note :

Please Update (Trackers Info) Before Start Torrents Downloading to See Updated Seeders And Leechers for Batter Download Speed.

Trackers List

Tracker NameLast CheckStatusSeedersLeechers
udp://9.rarbg.to:2730/announce8 months agosuccess00
udp://tracker.internetwarriors.net:1337/announce8 months agosuccess00
udp://open.stealth.si:80/announce8 months agosuccess00
udp://tracker.torrent.eu.org:451/announce8 months agosuccess00
udp://tracker.mg64.net:6969/announce8 months agofailed00
udp://tracker.torrent.eu.org:4518 months agosuccess00
https://tracker3.itzmx.com:8080/announce8 months agofailed00
udp://9.rarbg.me:2740/announce8 months agosuccess00
udp://9.rarbg.me:2730/announce8 months agosuccess00
udp://9.rarbg.me:2770/announce8 months agosuccess00
udp://tracker.zer0day.to:1337/announce8 months agofailed00
udp://tracker.vanitycore.co:6969/announce8 months agosuccess00
udp://9.rarbg.to:2740/announce8 months agosuccess00
udp://tracker.tiny-vps.com:6969/announce8 months agosuccess00
udp://9.rarbg.to:2770/announce8 months agosuccess00
udp://tracker.pirateparty.gr:6969/announce8 months agosuccess00
udp://9.rarbg.to:2720/announce8 months agosuccess00
udp://public.popcorn-tracker.org:6969/announce8 months agosuccess00
udp://tracker.cypherpunks.ru:6969/announce8 months agofailed00
udp://inferno.demonoid.pw:3418/announce8 months agofailed00
udp://tracker.cyberia.is:6969/announce8 months agosuccess00
udp://asnet.pw:2710/announce8 months agofailed00
udp://tracker.acg.gg:2710/announce8 months agofailed00
udp://tracker.port443.xyz:6969/announce8 months agosuccess00
https://bt.acg.gg:1578/announce8 months agofailed00
udp://shadowshq.yi.org:6969/announce8 months agofailed00
udp://tracker.ccc.de:80/announce8 months agofailed00
udp://open.demonii.com:1337/announce8 months agofailed00
udp://tracker.publicbt.com:80/announce8 months agofailed00
udp://tracker.openbittorrent.com:80/announce8 months agofailed00
udp://tracker.istole.it:80/announce8 months agofailed00
udp://ipv4.tracker.harry.lu:80/announce8 months agosuccess00
udp://9.rarbg.me:2710/announce8 months agosuccess00
udp://9.rarbg.com:2710/announce8 months agosuccess00
udp://exodus.desync.com:6969/announce8 months agosuccess00
udp://tracker.leechers-paradise.org:6969/announce8 months agofailed00
udp://tracker.coppersurfer.tk:6969/announce8 months agosuccess00
https://tracker.istole.it/announce8 months agofailed00
https://tracker.publicbt.com/announce8 months agofailed00
udp://eddie4.nl:6969/announce8 months agofailed00
udp://thetracker.org:80/announce8 months agofailed00
https://share.camoe.cn:8080/announce8 months agosuccess00
udp://tracker.justseed.it:1337/announce8 months agosuccess00
udp://tracker.coppersurfer.tk:80/announce8 months agosuccess00
udp://ipv6.tracker.harry.lu:80/announce8 months agofailed00
udp://tracker.trackerfix.com:80/announce8 months agofailed00
udp://bt. -tracker.com:2710/announce8 months agosuccess00
udp://glotorrents.pw:6969/announce8 months agofailed00
udp://p4p.arenabg.ch:1337/announce8 months agofailed00
udp://9.rarbg.to:2710/announce8 months agosuccess00
udp://tracker.opentrackr.org:1337/announce8 months agosuccess00



Torrent File Content (1 file)


     Doctor Who 2005 S08E07 Kill the Moon HDTV HEVC AC3 5.1 - DLSTv.mkv -
188.94 MB



Description



 							General
Format : Matroska
Format version : Version 1
File size : 189 MiB
Duration : 44mn 31s
Overall bit rate : 593 Kbps
Writing application : DivXMKVMux 9.8.12.1750
Writing library : libDivXMediaFormat 4.0.0.0578

Video
ID : 1
Format : HEVC
Format/Info : High Efficiency Video Coding
Codec ID : V_MPEGH/ISO/HEVC
Duration : 44mn 31s
Bit rate : 197 Kbps
Width : 640 pixels
Height : 360 pixels
Display aspect ratio : 16:9
Frame rate mode : Constant
Frame rate : 25.000 fps
Bits/(Pixel*Frame) : 0.034
Stream size : 62.9 MiB (33%)
Language : English
Default : Yes
Forced : No

Audio
ID : 2
Format : AC-3
Format/Info : Audio Coding 3
Mode extension : CM (complete main)
Format settings, Endianness : Big
Codec ID : A_AC3
Duration : 44mn 31s
Bit rate mode : Constant
Bit rate : 384 Kbps
Channel(s) : 6 channels
Channel positions : Front: L C R, Side: L R, LFE
Sampling rate : 48.0 KHz
Bit depth : 16 bits
Compression mode : Lossy
Stream size : 122 MiB (65%)
Language : English
Default : Yes
Forced : No

Related torrents

Torrent NameAddedSizeSeedLeechHealth
1 Year+ - in TV shows145.16 MB00
1 Year+ - in TV shows145.16 MB00
1 Year+ - in TV shows222.78 MB01
1 Year+ - in TV shows1.13 GB00
1 Year+ - in TV shows323.01 MB00

Note :

Feel free to post any comments about this torrent, including links to Subtitle, samples, screenshots, or any other relevant information. Watch Doctor Who 2005 S08E07 Kill the Moon HDTV HEVC AC3 5 1 - DLSTv Free Movies Online, Like 123Movies, Fmovies, Putlockers, Popcorntime, Netflix or Direct Download Doctor Who 2005 S08E07 Kill the Moon HDTV HEVC AC3 5 1 - DLSTv via Magnet Link.

Comments (0 Comments)




Please login or create a FREE account to post comments
Quick Browse
Movies
TV shows
Music
Games
Applications
Anime
Other

Latest Articles

Friends
Torrentz2

LimeTorrents

Latest Searches